osu file format v14

[General]
AudioFilename: everlastingmessage.mp3
AudioLeadIn: 1500
PreviewTime: 83623
Countdown: 0
SampleSet: Soft
StackLeniency: 0.7
Mode: 0
LetterboxInBreaks: 0
WidescreenStoryboard: 0

[Editor]
Bookmarks: 10058,21797,23623,52058,94840
DistanceSpacing: 1.3
BeatDivisor: 3
GridSize: 4
TimelineZoom: 2.4

[Metadata]
Title:Everlasting Message
TitleUnicode:Everlasting Message
Artist:penoreri
ArtistUnicode:ぺのれり
Creator:Azer
Version:Julie's STANDARD
Source:SOUND VOLTEX III GRAVITY WARS
Tags:SDVX 3 sukiNathan guy asphyxia pkk julie mikii konami bemani
BeatmapID:784181
BeatmapSetID:302447

[Difficulty]
HPDrainRate:6
CircleSize:4
OverallDifficulty:6
ApproachRate:8
SliderMultiplier:1.4
SliderTickRate:1

[Events]
//Background and Video events
0,0,"bgeverlasting.png",0,0
//Break Periods
//Storyboard Layer 0 (Background)
//Storyboard Layer 1 (Fail)
//Storyboard Layer 2 (Pass)
//Storyboard Layer 3 (Foreground)
//Storyboard Sound Samples

[TimingPoints]
145,260.869565217391,4,2,1,70,1,0
927,-100,4,2,1,60,0,0
8492,-100,4,2,1,60,0,0
14753,-100,4,2,1,60,0,0
25188,-133.333333333333,4,2,1,40,0,0
33014,-100,4,2,1,60,0,0
33536,-100,4,2,1,60,0,0
37710,-100,4,2,1,60,0,0
43971,-100,4,2,1,60,0,1
60666,-100,4,2,1,60,0,0
86753,-100,4,2,1,60,0,0
87797,-100,4,2,1,60,0,0
88710,-100,4,2,1,60,0,1
98231,-100,4,2,1,60,0,1
98753,-100,4,2,1,60,0,1
98927,-100,4,2,1,60,0,1
99101,-100,4,2,1,60,0,1
99275,-100,4,2,1,60,0,1
100318,-100,4,2,1,60,0,1
107688,-100,4,2,1,60,0,0
108666,-100,4,2,1,60,0,0

[Colours]
Combo1 : 230,98,111
Combo2 : 63,209,252
Combo3 : 239,109,254
Combo4 : 177,233,122

[HitObjects]
60,188,927,5,4,0:0:0:0:
227,114,1188,5,0,0:0:0:0:
301,280,1449,2,0,B|337:277|365:253|376:223,2,70,,,0:0:0:0:
90,283,1971,2,0,B|45:242|41:174|79:125|130:110,1,210,,,0:0:0:0:
104,23,2492,6,0,B|146:12|189:30|212:67|213:105,1,140,2|0,0:0|0:0,0:0:0:0:
300,66,2884,2,0,B|310:111|289:156|250:179|210:179,1,140,2|0,0:0|0:0,0:0:0:0:
148,201,3275,5,2,0:0:0:0:
238,266,3536,1,2,0:0:0:0:
317,322,3797,1,2,0:0:0:0:
385,371,4058,1,2,0:0:0:0:
458,175,4318,6,0,B|486:109|486:109|329:159|198:78,1,350,0|0,1:0|0:0,0:0:0:0:
131,27,5101,1,6,0:0:0:0:
73,98,5231,6,0,B|54:82|43:60|41:38,2,70,,,0:0:0:0:
163,112,5623,2,0,B|190:102|209:81|218:57,1,70,,,0:0:0:0:
300,96,5884,2,0,B|288:146|250:182|204:194,1,140,2|2,0:0|0:0,0:0:0:0:
74,196,6405,6,0,L|-3:219,2,70,2|0|0,0:0|0:0|0:0,0:0:0:0:
136,263,6797,2,0,L|59:286,2,70,2|0|0,0:0|0:0|0:0,0:0:0:0:
201,200,7188,6,0,L|278:177,2,70,2|0|0,0:0|0:0|0:0,0:0:0:0:
263,267,7579,2,0,L|340:244,2,70,2|0|0,0:0|0:0|0:0,0:0:0:0:
325,334,7971,2,0,L|402:311,2,70,2|0|0,0:0|0:0|0:0,0:0:0:0:
236,355,8362,1,0,0:0:0:0:
132,342,8492,6,0,B|86:339|49:306|38:262|49:224,1,140,4|0,1:0|1:0,0:0:0:0:
150,154,9014,2,0,B|200:157|236:199|236:246,1,140,0|0,1:0|1:0,0:0:0:0:
132,342,9536,6,0,B|86:339|49:306|38:262|49:224,1,140,0|0,1:0|1:0,0:0:0:0:
236,247,10058,2,0,B|282:244|319:211|330:167|319:129,1,140,0|0,1:0|1:0,0:0:0:0:
291,17,10579,6,0,B|241:20|204:62|204:109,1,140,0|0,1:0|1:0,0:0:0:0:
167,194,10971,1,0,0:0:0:0:
76,211,11101,2,0,B|99:287|180:285|180:285|205:246|236:246,1,210,0|0,1:0|0:0,0:0:0:0:
324,276,11623,6,0,B|314:303|295:322|271:332,2,70,0|0|0,1:0|1:0|1:0,0:0:0:0:
328,184,12014,1,0,1:0:0:0:
406,138,12144,2,0,B|379:93|319:81|277:109,1,140,0|0,1:0|1:0,0:0:0:0:
167,194,12666,5,4,1:0:0:0:
202,58,12927,1,0,1:0:0:0:
67,95,13188,1,0,1:0:0:0:
167,194,13449,1,0,1:0:0:0:
313,296,13710,5,0,1:0:0:0:
302,156,13971,1,0,1:0:0:0:
157,55,14231,1,0,1:0:0:0:
167,194,14492,1,0,1:0:0:0:
355,101,14753,6,0,B|384:129|389:172|369:207|338:223,1,140,4|8,1:0|0:0,0:0:0:0:
430,240,15144,2,0,B|405:292|343:313|293:289,1,140,0|8,1:0|0:0,0:0:0:0:
225,356,15536,6,0,B|196:309|214:248|260:222,1,140,4|8,1:0|0:0,0:0:0:0:
302,156,15927,2,0,B|261:126|204:136|176:177,1,140,0|8,1:0|0:0,0:0:0:0:
99,246,16318,2,0,B|75:221|69:187|78:156,1,70,4|8,1:0|0:0,0:0:0:0:
91,93,16579,1,0,1:0:0:0:
254,12,16840,5,12,0:0:0:0:
361,102,17101,2,0,B|388:133|390:176|370:211|339:228,1,140,0|0,1:0|1:0,0:0:0:0:
262,266,17492,1,0,0:0:0:0:
171,278,17623,1,0,1:0:0:0:
65,186,17884,6,0,L|3:125,1,70,0|0,1:0|0:0,0:0:0:0:
102,111,18144,2,0,L|40:50,1,70,0|0,1:0|0:0,0:0:0:0:
140,37,18405,2,0,L|207:105,3,70,0|0|0|0,1:0|0:0|1:0|0:0,0:0:0:0:
270,154,18927,6,0,B|310:134|357:144|389:175|399:212,1,140,4|0,1:0|1:0,0:0:0:0:
379,337,19449,2,0,B|339:357|292:347|260:316|250:279,1,140,0|0,1:0|1:0,0:0:0:0:
77,323,19971,6,0,B|45:275|60:211|107:181,1,140,4|0,1:0|1:0,0:0:0:0:
217,135,20492,1,0,1:0:0:0:
172,268,20753,1,8,0:0:0:0:
304,147,21014,6,0,L|429:80,1,140,4|8,1:0|0:0,0:0:0:0:
469,0,21405,2,0,B|510:17|532:60|525:104|499:133,1,140,0|8,1:0|0:0,0:0:0:0:
454,208,21797,6,0,L|329:275,1,140,4|8,1:0|0:0,0:0:0:0:
288,355,22188,2,0,B|247:338|225:295|232:251|258:222,1,140,0|8,1:0|0:0,0:0:0:0:
304,147,22579,1,4,1:0:0:0:
167,115,22840,1,0,1:0:0:0:
56,260,23101,6,0,L|-16:348,1,93.3333333333333,4|0,0:0|0:0,0:0:0:0:
72,368,23362,2,0,B|113:376|152:353|168:317,1,93.3333333333333,,,0:0:0:0:
202,266,23623,2,0,L|294:306,1,93.3333333333333,8|0,0:0|0:0,0:0:0:0:
372,312,23884,2,0,B|385:274|370:235|340:213,1,93.3333333333333,,,0:0:0:0:
303,157,24144,6,0,L|263:180,5,46.6666666666667,8|0|0|0|0|0,0:0|0:0|0:0|0:0|0:0|0:0,0:0:0:0:
221,105,24666,2,0,L|177:129,5,46.6666666666667,8|0|0|0|0|0,0:0|0:0|0:0|0:0|0:0|0:0,0:0:0:0:
105,172,25188,5,2,0:0:0:0:
105,172,25710,2,0,B|133:204|174:214|211:205,1,105.000004005432,2|2,0:0|0:0,0:0:0:0:
303,190,26231,1,2,0:0:0:0:
267,288,26753,1,2,0:0:0:0:
447,231,27275,5,2,0:0:0:0:
447,231,27797,2,0,B|449:189|428:152|395:132,1,105.000004005432,2|2,0:0|0:0,0:0:0:0:
319,78,28318,1,2,0:0:0:0:
414,34,28840,1,2,0:0:0:0:
225,19,29362,5,2,0:0:0:0:
225,19,29884,2,0,B|192:46|181:88|191:125,1,105.000004005432,2|2,0:0|0:0,0:0:0:0:
206,216,30405,1,2,0:0:0:0:
108,180,30927,1,2,0:0:0:0:
130,367,31449,5,2,0:0:0:0:
130,367,31971,2,0,B|172:369|208:347|228:314,1,105.000004005432,2|2,0:0|0:0,0:0:0:0:
282,227,32492,1,2,0:0:0:0:
346,333,32884,1,2,0:0:0:0:
346,333,33014,1,8,0:0:0:0:
453,242,33536,6,0,B|485:203|485:149|459:111,1,140,4|8,1:0|0:0,0:0:0:0:
358,61,34058,1,0,1:0:0:0:
367,172,34318,1,0,1:0:0:0:
265,123,34579,6,0,B|219:101|167:115|137:151,1,140,0|0,1:0|0:0,0:0:0:0:
28,122,35101,2,0,B|10:170|27:221|64:249,1,140,0|0,1:0|0:0,0:0:0:0:
167,332,35623,6,0,B|213:352|264:338|294:303,1,140,4|8,1:0|0:0,0:0:0:0:
319,194,36144,1,0,1:0:0:0:
211,225,36405,1,0,1:0:0:0:
220,113,36666,6,0,B|249:72|301:58|345:74,1,140,0|0,1:0|0:0,0:0:0:0:
436,8,37188,2,0,B|483:26|510:72|506:118,1,140,4|0,1:0|0:0,0:0:0:0:
433,238,37710,6,0,L|349:351,1,140,4|8,1:0|0:0,0:0:0:0:
309,253,38101,2,0,L|159:237,1,140,0|8,0:0|0:0,0:0:0:0:
99,296,38492,2,0,B|68:310|34:307|7:292,1,70,0|0,1:0|1:0,0:0:0:0:
52,212,38753,6,0,B|22:198|6:168|8:139,1,70,4|8,1:0|0:0,0:0:0:0:
95,127,39014,2,0,B|103:96|123:73|148:59,1,70,0|0,1:0|1:0,0:0:0:0:
188,141,39275,2,0,B|220:131|254:135|281:149,1,70,0|0,1:0|1:0,0:0:0:0:
225,225,39536,1,8,0:0:0:0:
393,91,39797,5,4,1:0:0:0:
393,91,39927,2,0,B|413:118|422:150|421:181,1,70,8|0,0:0|0:0,0:0:0:0:
337,195,40188,1,0,1:0:0:0:
337,195,40318,2,0,B|342:230|363:259,1,70,8|0,0:0|0:0,0:0:0:0:
414,351,40579,5,4,1:0:0:0:
414,351,40710,2,0,B|383:365|350:368|320:363,1,70,8|0,0:0|0:0,0:0:0:0:
280,301,40971,1,0,1:0:0:0:
280,301,41101,2,0,B|244:300|212:315,1,70,8|0,0:0|0:0,0:0:0:0:
117,366,41362,5,4,1:0:0:0:
69,190,41623,1,0,1:0:0:0:
177,100,41884,6,0,L|246:32,1,70,0|8,1:0|0:0,0:0:0:0:
215,190,42275,2,0,L|146:258,1,70,0|8,1:0|0:0,0:0:0:0:
311,217,42666,2,0,L|380:149,1,70,4|8,1:0|0:0,0:0:0:0:
462,74,43058,6,0,B|515:165|493:278|411:347|320:357,1,350,0|0,1:0|0:0,0:0:0:0:
205,351,43971,6,0,B|151:338|109:303|84:259,1,140,4|0,1:0|1:0,0:0:0:0:
85,181,44362,2,0,B|112:139|153:112|198:102,1,140,8|8,0:0|0:0,0:0:0:0:
253,30,44753,2,0,B|297:71|305:135|275:187|230:211,1,210,0|8,1:0|0:0,0:0:0:0:
154,258,45275,6,0,B|158:292|171:323|190:348,1,70,0|8,1:0|0:0,0:0:0:0:
263,301,45536,2,0,B|280:330|305:353|333:367,1,70,0|8,1:0|0:0,0:0:0:0:
379,293,45797,2,0,B|407:312|439:322|470:323,1,70,0|8,1:0|0:0,0:0:0:0:
483,222,46058,6,0,B|449:182|400:165|352:171,1,140,4|0,1:0|1:0,0:0:0:0:
267,176,46449,2,0,B|217:180|172:159|142:124,1,140,8|8,0:0|0:0,0:0:0:0:
99,43,46840,2,0,L|181:30,1,70,0|8,1:0|0:0,0:0:0:0:
273,22,47101,6,0,B|328:12|379:37|407:79,1,140,4|0,1:0|1:0,0:0:0:0:
489,76,47492,1,8,0:0:0:0:
489,76,47623,2,0,B|526:152|497:240|428:281,1,210,4|8,1:0|0:0,0:0:0:0:
355,311,48144,6,0,B|300:321|249:296|221:254,1,140,4|0,1:0|1:0,0:0:0:0:
138,264,48535,1,8,0:0:0:0:
138,264,48666,2,0,B|102:187|132:99|201:58,1,210,0|8,1:0|0:0,0:0:0:0:
276,30,49188,6,0,B|331:20|382:45|410:87,1,140,4|0,1:0|1:0,0:0:0:0:
491,94,49579,1,8,0:0:0:0:
491,94,49710,2,0,B|509:125|511:160|502:191,1,70,0|8,1:0|0:0,0:0:0:0:
430,211,49971,2,0,B|399:216|376:238|367:265,1,70,0|8,1:0|0:0,0:0:0:0:
325,341,50231,6,0,B|268:364|207:350|166:313,1,140,4|0,1:0|1:0,0:0:0:0:
148,249,50623,1,8,0:0:0:0:
148,249,50753,2,0,B|205:226|266:240|307:277,1,140,4|0,1:0|1:0,0:0:0:0:
325,341,51144,5,8,0:0:0:0:
325,341,51275,2,0,B|384:326|426:279|437:224,1,140,4|0,1:0|1:0,0:0:0:0:
421,162,51666,1,0,1:0:0:0:
330,169,51797,2,0,B|276:200|196:196|196:196|147:249,1,210,0|0,1:0|0:0,0:0:0:0:
163,352,52318,6,0,B|109:339|67:304|42:260,1,140,4|0,1:0|1:0,0:0:0:0:
47,181,52710,2,0,B|74:139|115:112|160:102,1,140,8|8,0:0|0:0,0:0:0:0:
218,32,53101,2,0,B|275:64|295:137|261:197|207:219,1,210,0|8,1:0|0:0,0:0:0:0:
154,258,53623,6,0,B|154:291|176:319|205:328,1,70,0|8,1:0|0:0,0:0:0:0:
271,287,53884,2,0,B|289:315|323:324|352:314,1,70,0|8,1:0|0:0,0:0:0:0:
386,246,54144,2,0,B|417:257|450:246|469:222,1,70,0|8,1:0|0:0,0:0:0:0:
430,133,54405,6,0,L|284:115,1,140,4|0,1:0|1:0,0:0:0:0:
80,113,54927,2,0,B|76:65|110:23|155:16,2,105,4|0|8,0:0|0:0|0:0,0:0:0:0:
159,181,55449,6,0,B|133:223|93:251,1,70,4|8,1:0|0:0,0:0:0:0:
46,296,55710,1,0,1:0:0:0:
100,368,55840,2,0,B|158:382|215:357|247:313,1,140,8|8,0:0|0:0,0:0:0:0:
212,244,56231,2,0,B|244:240|274:251|296:271,1,70,0|8,1:0|0:0,0:0:0:0:
366,317,56492,6,0,B|407:274|406:208|369:166,1,140,4|0,1:0|1:0,0:0:0:0:
445,121,56884,2,0,B|414:69|350:53|299:78,1,140,8|8,0:0|0:0,0:0:0:0:
282,150,57275,2,0,B|256:136|240:112|235:86,1,70,0|8,1:0|0:0,0:0:0:0:
147,44,57536,6,0,B|68:35,1,70,4|8,1:0|0:0,0:0:0:0:
27,112,57797,2,0,B|27:148|52:177|84:185,1,70,0|8,1:0|0:0,0:0:0:0:
145,196,58058,2,0,B|179:203|207:224|222:252,1,70,0|8,1:0|0:0,0:0:0:0:
244,311,58318,2,0,B|273:323|304:314|323:292,1,70,0|8,1:0|0:0,0:0:0:0:
397,242,58579,6,0,B|446:213|461:152|437:104,1,140,4|0,1:0|1:0,0:0:0:0:
285,30,59101,2,0,B|236:59|221:120|245:168,1,140,4|0,1:0|1:0,0:0:0:0:
295,279,59623,6,0,B|288:328|248:363|202:368,1,140,0|0,1:0|1:0,0:0:0:0:
144,241,60145,2,0,B|150:191|190:156|236:151,1,140,0|8,1:0|0:0,0:0:0:0:
256,192,60666,12,0,62231,0:0:0:0:
361,299,62753,6,0,L|433:307,1,70,0|8,1:0|0:0,0:0:0:0:
326,157,63144,2,0,L|398:165,1,70,0|8,1:0|0:0,0:0:0:0:
236,255,63536,2,0,L|166:247,1,70,0|8,1:0|0:0,0:0:0:0:
188,66,63927,2,0,L|118:58,1,70,0|8,1:0|0:0,0:0:0:0:
0,133,64318,6,0,B|-18:236|58:330|160:336,1,280,0|4,1:0|1:0,0:0:0:0:
289,159,66666,6,0,B|346:150|389:110|406:61,1,140,0|2,0:0|0:0,0:0:0:0:
397,79,67971,2,0,B|456:138|458:232|402:298|331:316,1,280,2|0,0:0|0:0,0:0:0:0:
397,79,69014,6,0,B|328:42|249:43|184:73,1,210,4|0,1:0|1:0,0:0:0:0:
114,24,69536,2,0,B|46:63|24:148|60:214,1,210,8|0,0:0|1:0,0:0:0:0:
147,212,70058,5,0,1:0:0:0:
80,335,70318,1,0,1:0:0:0:
217,305,70579,1,8,0:0:0:0:
284,182,70840,1,0,1:0:0:0:
366,295,71101,6,0,B|469:234|476:74|338:-4|233:49,1,420,4|0,1:0|1:0,0:0:0:0:
284,182,72144,6,0,B|210:207|131:175|92:108|95:40,1,280,0|8,1:0|0:0,0:0:0:0:
241,44,72927,1,0,1:0:0:0:
380,64,73188,6,0,B|511:171|439:313|439:313|360:198|360:198|323:271|217:259,1,560,4|0,1:0|1:0,0:0:0:0:
103,249,74492,5,0,1:0:0:0:
50,119,74753,1,8,0:0:0:0:
140,12,75014,1,0,1:0:0:0:
186,139,75275,6,0,B|330:139|432:29|432:29|416:110|437:173,1,420,4|0,1:0|1:0,0:0:0:0:
480,301,76318,6,0,B|447:343|399:365|351:367,1,140,8|0,0:0|1:0,0:0:0:0:
209,263,76840,1,8,0:0:0:0:
45,342,77101,1,0,1:0:0:0:
18,161,77362,6,0,B|22:101|73:58|130:60,1,140,0|8,1:0|0:0,0:0:0:0:
209,63,77753,1,4,1:0:0:0:
209,263,78144,2,0,B|236:258|257:239|266:215,1,70,8|0,0:0|0:0,0:0:0:0:
293,121,78405,1,4,1:0:0:0:
408,199,78666,5,8,0:0:0:0:
491,87,78927,1,0,1:0:0:0:
353,70,79188,1,8,0:0:0:0:
494,225,79449,6,0,B|441:295|372:272|372:272|250:334|250:334|235:258|154:226,1,420,4|0,1:0|1:0,0:0:0:0:
22,247,80492,6,0,B|39:163|102:138|102:138|7:39|7:39|61:58|171:38,1,420,0|0,1:0|1:0,0:0:0:0:
329,27,81536,6,0,B|379:52|413:94|429:143,1,140,4|8,1:0|0:0,0:0:0:0:
424,216,81927,1,0,1:0:0:0:
247,126,82318,2,0,B|221:142|208:171|210:199,1,70,8|0,0:0|0:0,0:0:0:0:
234,271,82579,1,0,1:0:0:0:
376,281,82840,5,8,0:0:0:0:
262,366,83101,1,0,1:0:0:0:
128,333,83362,1,8,0:0:0:0:
231,182,83623,6,0,L|284:122,1,70,0|0,1:0|1:0,0:0:0:0:
140,159,84014,2,0,L|186:106,1,70,0|0,1:0|1:0,0:0:0:0:
66,178,84405,2,0,L|19:230,1,70,0|0,1:0|1:0,0:0:0:0:
160,231,84797,2,0,L|107:291,1,70,0|0,1:0|1:0,0:0:0:0:
284,221,85188,5,0,1:0:0:0:
165,51,85449,1,8,0:0:0:0:
386,80,85710,5,4,1:0:0:0:
386,80,85840,2,0,B|459:198|395:362|231:397|126:321,1,490,8|8,0:0|0:0,0:0:0:0:
256,192,87797,5,6,0:0:0:0:
99,332,88188,2,0,B|43:277|41:191|86:133,1,210,0|8,0:0|0:0,0:0:0:0:
164,101,88710,2,0,B|220:105|260:154|256:207,1,140,4|8,1:0|0:0,0:0:0:0:
196,260,89101,6,0,B|207:289|228:311|253:324,1,70,0|8,1:0|0:0,0:0:0:0:
306,282,89362,2,0,B|339:298|374:301|407:293,1,70,0|8,1:0|0:0,0:0:0:0:
406,230,89623,2,0,B|437:231|465:219|485:200,1,70,0|8,1:0|0:0,0:0:0:0:
398,134,89884,6,0,B|364:94|315:77|267:83,1,140,4|0,1:0|1:0,0:0:0:0:
294,171,90275,2,0,B|244:175|199:154|169:119,1,140,8|8,0:0|0:0,0:0:0:0:
124,39,90666,2,0,B|90:44|62:61|40:84,1,70,0|8,1:0|0:0,0:0:0:0:
4,156,90927,6,0,B|-12:210|17:265|67:284,1,140,4|0,1:0|1:0,0:0:0:0:
34,366,91318,1,8,0:0:0:0:
34,366,91449,2,0,B|111:391|192:353|225:284,1,210,4|8,1:0|0:0,0:0:0:0:
224,193,91971,6,0,B|254:145|316:132|362:159,1,140,4|8,1:0|0:0,0:0:0:0:
404,81,92362,1,0,1:0:0:0:
404,81,92493,2,0,B|472:125|495:210|464:280,1,210,0|0,1:0|1:0,0:0:0:0:
388,331,93014,6,0,B|337:356|278:336|250:291,1,140,4|8,1:0|0:0,0:0:0:0:
197,368,93405,1,0,1:0:0:0:
197,368,93536,2,0,B|172:348|165:315|176:288,1,70,0|8,1:0|0:0,0:0:0:0:
133,222,93797,2,0,L|200:192,1,70,0|0,1:0|1:0,0:0:0:0:
289,142,94058,6,0,B|259:94|197:81|151:108,1,140,4|8,1:0|0:0,0:0:0:0:
103,33,94449,1,0,1:0:0:0:
103,33,94580,2,0,B|58:70|48:132|72:180,1,140,0|8,1:0|0:0,0:0:0:0:
119,231,94971,5,0,1:0:0:0:
119,231,95101,2,0,B|164:260|218:261|261:239,1,140,4|0,1:0|1:0,0:0:0:0:
333,289,95492,1,0,1:0:0:0:
333,289,95623,2,0,B|415:275|468:198|455:119,1,210,0|0,1:0|0:0,0:0:0:0:
411,43,96144,6,0,B|364:23|310:47|294:95,1,140,4|0,1:0|1:0,0:0:0:0:
378,127,96536,2,0,B|357:176|299:195|253:171,1,140,0|0,1:0|1:0,0:0:0:0:
240,263,96927,2,0,B|182:249|148:188|168:126|212:97,1,210,0|0,1:0|1:0,0:0:0:0:
253,19,97449,2,0,B|221:11|190:19|166:37,1,70,0|0,1:0|1:0,0:0:0:0:
120,90,97710,2,0,B|99:110|92:139|98:165,1,70,8|8,0:0|0:0,0:0:0:0:
110,243,97971,2,0,B|118:276|146:298|177:300,1,70,0|0,1:0|1:0,0:0:0:0:
240,263,98231,6,0,L|307:126,1,140,0|8,1:0|0:0,0:0:0:0:
512,145,98753,2,0,B|518:102|503:61|476:32,2,93.3333333333333,4|4|4,1:0|1:0|1:0,0:0:0:0:
437,220,99275,6,0,L|368:274,1,70,4|0,1:0|1:0,0:0:0:0:
440,351,99536,1,8,0:0:0:0:
440,351,99666,2,0,B|365:381|284:355|238:296,1,210,0|0,1:0|1:0,0:0:0:0:
349,162,100318,6,0,B|338:118|301:89|257:86|222:103,1,140,4|0,1:0|1:0,0:0:0:0:
261,184,100710,2,0,B|212:195|165:164|153:118,1,140,8|8,0:0|0:0,0:0:0:0:
129,29,101101,2,0,B|97:35|73:58|62:86,1,70,0|8,1:0|0:0,1:0:0:0:
47,168,101362,6,0,L|27:244,1,70,4|8,1:0|0:0,0:0:0:0:
84,308,101623,2,0,B|117:320|152:312|176:291,1,70,0|8,1:0|0:0,1:0:0:0:
231,352,101884,2,0,B|266:349|294:327|307:297,1,70,0|8,1:0|0:0,1:0:0:0:
380,343,102144,2,0,B|410:325|426:293|426:261,1,70,0|8,1:0|0:0,1:0:0:0:
384,190,102405,6,0,L|426:118,1,70,4|8,1:0|0:0,0:0:0:0:
365,55,102666,2,0,B|330:55|298:65|271:84,1,70,0|8,1:0|0:0,0:0:0:0:
259,152,102927,2,0,L|205:63,1,70,0|8,1:0|0:0,0:0:0:0:
183,174,103188,2,0,L|226:238,1,70,0|8,1:0|0:0,0:0:0:0:
217,356,103449,6,0,B|135:351|77:277|88:198,1,210,4|8,1:0|0:0,0:0:0:0:
1,182,103971,2,0,B|0:107|59:47|130:42,1,210,0|0,1:0|1:0,0:0:0:0:
232,18,104492,6,0,B|246:67|217:117|170:131,1,140,4|0,1:0|1:0,0:0:0:0:
93,176,104884,2,0,B|119:220|176:233|218:208,1,140,0|0,1:0|1:0,0:0:0:0:
290,158,105275,1,0,1:0:0:0:
419,105,105536,6,0,B|451:183|389:240,1,140,0|0,1:0|1:0,0:0:0:0:
285,318,106058,1,0,1:0:0:0:
146,306,106318,1,8,0:0:0:0:
13,180,106579,6,0,B|44:112|125:86|189:119,1,210,0|0,1:0|1:0,0:0:0:0:
207,29,107101,2,0,B|280:42|326:113|311:183,1,210,0|0,1:0|1:0,0:0:0:0:
230,228,107623,6,0,B|267:297|371:307|427:219|396:149,1,280,8|2,0:0|0:0,0:0:0:0:
133,55,108666,6,0,L|61:38,1,70,4|8,1:0|0:0,0:0:0:0:
226,123,109058,2,0,L|298:140,1,70,0|8,1:0|0:0,0:0:0:0:
130,219,109449,2,0,L|202:236,1,70,0|8,1:0|0:0,0:0:0:0:
36,318,109840,2,0,L|108:335,1,70,0|8,1:0|0:0,0:0:0:0:
285,351,110231,2,0,B|314:335|327:302|321:272,1,70,0|8,1:0|0:0,0:0:0:0:
391,234,110492,2,0,B|377:212|354:198|331:194,1,70,0|8,1:0|0:0,0:0:0:0:
259,144,110753,6,0,L|317:95,1,70,0|8,1:0|0:0,0:0:0:0:
130,111,111144,2,0,L|72:160,1,70,0|8,1:0|0:0,0:0:0:0:
259,144,111536,2,0,L|312:98,1,70,0|8,1:0|0:0,0:0:0:0:
130,111,111927,2,0,L|72:160,1,70,0|8,1:0|0:0,0:0:0:0:
65,337,112318,2,0,L|118:291,3,70,0|0|0|0,1:0|0:0|1:0|0:0,0:0:0:0:
208,305,112840,6,0,L|261:259,1,70,0|8,1:0|0:0,0:0:0:0:
84,214,113231,2,0,L|137:168,1,70,0|8,1:0|0:0,0:0:0:0:
309,227,113623,2,0,L|362:181,1,70,0|8,1:0|0:0,0:0:0:0:
183,142,114014,2,0,L|236:96,1,70,0|8,1:0|0:0,0:0:0:0:
416,56,114405,2,0,B|444:60|464:84|464:111,1,70,0|8,1:0|0:0,0:0:0:0:
379,138,114666,2,0,B|384:165|405:185|431:190,1,70,0|8,1:0|0:0,0:0:0:0:
504,229,114927,6,0,L|480:299,1,70,0|8,1:0|0:0,0:0:0:0:
310,358,115318,2,0,L|334:288,1,70,0|8,1:0|0:0,0:0:0:0:
279,116,115710,2,0,L|255:186,1,70,0|8,1:0|0:0,0:0:0:0:
83,252,116101,6,0,L|105:185,1,70,0|8,1:0|0:0,0:0:0:0:
159,251,116362,2,0,L|181:184,1,70,0|8,1:0|0:0,0:0:0:0:
234,248,116623,2,0,L|256:181,1,70,8|8,0:0|0:0,0:0:0:0:
287,80,116884,1,4,1:0:0:0:
